&title=otorii INNOVATED -[i]3-
&wholebpm=210
&artist=NAOKI underground
&des=Hz-R.Arrow
&shortid=11446
&genre=オンゲキCHUNITHM
&cabinet=DX
&version=maimai DX UNiVERSE PLUS
&chartconverter=Neskol
&lv_2=6
&des_2=
&lv_3=8+
&des_3=
&lv_4=13
&des_4=翠楼屋
&lv_5=14
&des_5=Hz-R.Arrow
&des_6=
&inote_2=
(210){1},
{1},
{1},
{1},
{1},
{1}1,
{1}1,
{1}8,
{1}8,
{2}1b,1,
{1}1,
{1}2,
{1}2,
{2}3,3,
{1}3,
{1}4,
{1}4/5,
{2}5,5,
{1}5,
{2}6,6,
{1}6,
{2}7,7,
{1}7,
{2}8,8,
{1}1/8,
{4}7,7,7,7,
{4},,5,5,
{4}5,5,,,
{4}3,3,3,3,
{4},,1,1,
{4}1,1x,,,
{1}7h[4:3]/8h[4:3],
{1},
{1}1h[4:3]/2h[4:3],
{1},
{1}B1,
{1}B2,
{1}B3,
{1}B4,
{1}B5,
{1}B6,
{1}B7,
{1}C1,
{1}1-5[4:3],
{1},
{1}6-1[4:3],
{1},
{1}2-6[4:3],
{1},
{1}7-3[4:3],
{1},
{1}1h[2:1],
{1}1,
{1}2h[2:1],
{1}2,
{2}3,3,
{2}4,4,
{2}5,5,
{2}6,6,
(220){1}4b/5b,
{1},
{4}4,4,4,,
{2}3,2,
{4}1,1,1,,
{2}8,7,
{4}6,6,6,,
{2}5,4,
{4}3,3,3,,
{1}3/4,
{4}5,5,5,,
{2}6,7,
{4}8,8,8,,
{2}1/2,1/2,
{4}3,3,3,,
{2}4,5,
{4}6,6,6,,
{2}5/6,5/6,
{1}4b/7b,
{1},
{1},
{1},
(240){1}B5,
{1}B4,
{1}B6,
{1}B3,
{1}B7,
{1}B2,
{1}B8,
{1}B1,
{1}B7/B8,
{1}B5/B6,
{1}B3/B4,
{1}B1/B2,
{1}B3/B4/E4,
{1}B5/B6/E6,
{1}C1,
{1}1x/8x,
{4}1b,1,1,,
{4}2,2,2,,
{4}3,3,3,,
{4}4/5,4/5,4/5,,
{4}6,6,6,,
{4}7,7,7,,
{4}8,8,8,,
{4}1/2,1/2,1/2,,
{4}8,8,7,7,
{4}6,6,5,5,
{4}4,4,3,3,
{4}2,2,1/2,,
{4}3,3,4,4,
{4}5,5,4,4,
{4}3/6,3/6,2/7,2/7,
{4}1/8,1/8,2/7,2/7,
{1}3b/6b,
{1},
{4}6,6,5/6,,
{4}3,3,3/4,,
{4}5x/6x,5x/6x,,3x/4x,
{4}3x/4x,,5x,5x,
{4}6,7,8,1,
{8}2,,3,,4x/5x,4x/5x,,,
{1},
{1},
{1},
E
&inote_3=
(210){1},
{1}1>6[1:1],
{1},
{1}8<3[1:1],
{1},
{1}2s6[1:1],
{1},
{1}7z3[1:1],
{1},
{2}E3,E4,
{2}E5,E6,
{2}E7,E8,
{2}E1,E2,
{2}E3,E2,
{2}E1,E8,
{2}E7,E6,
{2}E5,E4/E6,
{1}3h[1:1],
{1}4h[1:1],
{1}5h[1:1],
{2}6,5/6,
{1}7h[1:1],
{1}8h[1:1],
{1}1h[1:1],
{2}2,1x/8x,
{2}2,1/2,
{2}7,7/8,
{2}5/6,4/7,
{4}3,3x/4x,3,5,
{4}4x/5x,5,3,3x/4x,
{4}3,5,4x/5x,5,
{1}6-1[2:1],
{4}2,2,1/2,,
{1}3-8[2:1],
{4}7,7,7/8,,
{4}2,2,1,1,
{4}8,8,1/7,,
{4}6,6,5,5,
{4}4,4,3/5,,
{4}3,3,4,4,
{4}5,5,4/6,,
{4}7,7,8,8,
{4}1,1/8,2/7,,
{1}E1,
{1}E2/E8,
{1}E3/E7,
{1}E4/E6,
{1}E5,
{1}E4/E6,
{1}E3/E7,
{1}E2/E8,
{4}E7,B6,B5,,
{4}E3,B3,B4,,
{4}E7,B6,B5,,
{4}E3,B3,B4,,
{4}B6,B7,E8,,
{4}B3,B2,E2,,
{4}B6,B7,E8,,
{1}C1hf[1:1],
(220){1},
{4}1x/8x,1x/8x,2x/7x,,
{2}6h[2:1],5,
{4}6,6,5/7,,
{2}3h[2:1],4,
{4}3,3,2/4,,
{2}6h[2:1],5,
{4}3,3,2/4,,
{2}6h[2:1],5,
{4}4,4/5,3/6,,
{4}7,7,7/8,,
{4}2,2,1/2,,
{4}7,7,7/8,,
{4}1,1,2/8,,
{4}3,3,3/4,,
{4}6,6,5/6,,
{4}3,3,3/4,,
{4}5,5,4,4,
{1}4bqq1[4:11]/5bpp8[4:11],
{1},
{1},
{1},
(240){1}2-5[2:1],
{1}6-1[2:1],
{1}2-6[2:1],
{2}7,7/8,
{1}6-1[2:1],
{1}2-6[2:1],
{1}7-4[2:1],
{2}3,4/5,
{2}6h[2:1],5,
{2}3h[2:1],4,
{2}6h[2:1],5,
{2}3h[4:1]/4h[4:1],3/4,
{2}2h[2:1],1,
{2}7h[2:1],8,
{2}2h[2:1],1,
{2}1h[4:1]/8h[4:1],1/8,
{4}7b,7,7/8,7/8,
{4}2,2,1/2,1/2,
{4}3,4,5,6,
{8}7,7,7,,1/8,,,,
{4}2b,2,1/2,1/2,
{4}7,7,7/8,7/8,
{4}6,5,4,3,
{4}1x/2x,1x/2x,3x/8x,,
{8}7b,7,7,,7/8,,7/8,,
{8}2,2,2,,1/2,,1/2,,
{8}3,3,3,,4/5,,6,,
{8}7,7,7,,1/8,,,,
{8}2b,2,2,,1/2,,1/2,,
{8}7,7,7,,7/8,,7/8,,
{8}6,6,6,,4,4,4,,
{8}5,5,5,,4,4,5,5<4[8:11],
{1},
{1},
{4}5,5,6,7,
{4}8,1,2,3,
{8}4/5,4/5,4/5,,,,3/4,3/4,
{4}3/4,,4/5,4/5,
{8}6,6,5/6,,4/5,4/5,,3,
{8}3,4,4,5,5,6b,,,
{1},
{1},
{1},
E
&inote_4=
(210){1},
{2}4h[4:1]/6h[4:1],3h[4:1]/5h[4:1],
{4}4/6,7,1/8,2,
{2}3h[4:1]/5h[4:1],4h[4:1]/6h[4:1],
{8}3,3,4,,2x/6x,,,,
{2}3h[4:1]/5h[4:1],4h[4:1]/6h[4:1],
{4}3/5,2,1/8,7,
{2}4/6-4[8:1],2-4[8:1],
{8}5,5,4,,3/6,,3/6,,
{4}4b/5b,4/5h[1:3],,B6,
{4},B4,,B6/E7,
{4},B4/E5,,B6/E6,
{8},,4,,,3/5,3/5,,
{8}2b/6b,,2h[2:1]/6,,,4,4,,
{8}3b/5b,,2/6h[2:1],,,5,5,,
{2}4h[4:1]/6b,3b/5h[4:1],
{8}6,6,4,4,5,,4/6,,
{8}2b,2,4,3,3,5,5,4,
{8}7,,4/8,,7,7,5,6,
{8}3,4,3,6,5,6,3,4,
{4}2h[4:1],1,7/8,5/6,
{8}7,7,5,6,6,4,4,5,
{4}3,2/6,1/8,3/7,
{8}6,5,6,3,4,3,6,5,
{8}7h[4:1],,8,,1,1,1/8,,
{8}2b/6b,,3/5,,4/6,6,3h[4:1],,
{8}4,,3/5,3,7h[4:1],,5,,
{8}4/6,6,3,3,4,,2/5,,
{8}6,5,4b,5,6,,3,4,
{8}5b,4,3,,7,5,3b,5,
{8}7,,2,4,6b,4,2,,
{8}1b/5b,,2>5[4:1],,6,6,6b,,
{8}5/7,,4/8<5[4:1],,3,3,3b,,
{8}3/4,,2-5[4:1]/5,,6,6,6,,
{8}4/8,,4,,3/5,3/5,3V16[2:1]/5,,
{4}4b,4,4,5V38[2:1],
{4}6,6,6,7V52[2:1],
{4}8,8,8,8,
{4}7/8,6/7,5/6,5/6V83[2:1],
{4}5,5,4,4V61[2:1],
{4}3,3,2,2V47[2:1],
{4}1,1,8,8<4[2:1]*>4[2:1],
{1},
{1}3h[2:7]/5b,
{2},E5,
{2},E5,
{2},E5,
{2}4/6h[4:3],E5,
{2}3h[4:3]/5,E5,
{2}4/6h[4:3],5,
{1}5-1[2:1]/7h[1:1],
{4}1b,B5,B4,E4,
{4}E3/E6,B5,B4,E4,
{4}E2/E6,B5,B4,E4,
{4}E1/E6,B5,B4,E4,
{4}C1/E3,E2,E1,E8,
{4}C1/E7,E6,E5,E4,
{4}C1/E3,E2,E1,E8,
{4}C1/E7,E6,E5,E4,
(220){1}C1f/E3/E7,
{8}1,1,8,8,1,,2x/7x,,
{8}3b,3,4-6[8:1],,1,,3,3,
{8}7,7,5-3[8:1],,8,,6,6,
{8}2,2,4-7[8:1],,1,,3,3,
{8}3/8,,5/6,,4/5,,3,3,
{8}4,4,2-5[8:1],,8,,7,7,
{8}5,5,6-1[8:1],,3,,2,2,
{4}2/8,6/7,3/4,1/2,
{8}8,8,1,1,7,7,4/7,,
{8}6b,6,5-3[8:1],,7-5[8:1],,2,2,
{4}4-7[8:1],1-5[8:1],8x,4x/7x,
{8}3,3,4-6[8:1],,2-4[8:1],,7,7,
{4}5-2[8:1],8-4[8:1],1x,2x/5x,
{8}3b,3,4-7[8:1],,1-4[8:1],,8x,,
{8}7,7,5-2[8:1],,8-4[8:1],,1x,1,
{4}1/5,3/4,4/8,5/6,
{8}3,3,4,4,5,5,6<3[1:3],,
{1}5b,
{1},
{1},
{1},
(240){4}6b,6h[4:1],5h[4:1],7h[4:1],
{4}8h[4:1],6h[4:1],5,4,
{4}3,3h[4:1],4h[4:1],2h[4:1],
{4}1h[4:1],2,3/4,3/4,
{4}2/5,6h[4:1],5h[4:1],7h[4:1],
{4}8h[4:1],5h[4:1],6,5,
{4}4,3h[4:1],4h[4:1],1h[4:1],
{4}2h[4:1],4,3/5,,
{4}6h[2:1],5,2h[2:1],4,
{4}7h[2:1],B5/B6,1h[2:1],C1,
{4}7h[2:1],8,3h[2:1],1,
{4}6h[2:1],B7/E7,4h[2:1],C1,
{4}6h[4:1],7h[4:1],8h[4:1],1h[4:1],
{4}2h[4:1],3h[4:1],4,3/4,
{8}2,2,7,7,1,1,8,8,
{16}1,8,1,8,1,8,1,8,1,,,,2x/7x,,,,
{8}3b,3,4-8[8:1],,2-5[8:1],,1-6[8:1],,
{4}3-8[8:1],5,1/7,2/5,
{8}3,3,4-7[8:1],,1-4[8:1],,8x,,
{4}7,5/6,3/4,1b/6b,
{8}7,7,8-3[8:1],,6-3[8:1],,1x,,
{8}2,2,1-6[8:1],,3-6[8:1],,8x,,
{8}7,7,5,5,6,6,4/6,,
{8}3/5,3/5,3/5,3/5,3/5,,1x/8x,,
{8}2b-5[8:1],2,1-6[8:1],1,4,,3,3,
{8}4-7[8:1],4,3-8[8:1],3,6-3[8:1],6,1x,,
{8}2-5[8:1],2,1-6[8:1],1,4,,3x/5x,,
{8}4,4,6,6,8,,1/7,,
{8}6-1[8:1],6,2-5[8:1],2,8,,7,7,
{8}8-3[8:1],8,5-8[8:1],5,4x,,1,1,
{8}8,7,6,5,4,3,2,1,
{8}8,8,1,1,2/7,2/7,3b/6b,3bV52[8:11]/6bV47[8:11],
{1},
{1},
{8}2,2,4,4,3,3,7,7,
{8}6,6,5,5,4,4,4/5,,
{8}3b/4,3/4x,2x/5b,,,,5/6b,5x/6,
{8}4b/7x,,,3x/6x,5x,4x,3x,2x,
{8}1/2x,1x/2,3/8x,3x/8,4/7x,4x/7,,8x,
{8}1x,2x/7,3/6x,4x/5,4/5x,3b/6b,,,
{1},
{1},
{1},
E
&inote_5=
(210){1},
{8}4h[2:1]/5<3[2:7],,,,,,,4,
{8},4,,,,,,,
{8}4,,,,4,,,4,
{8},4h[8:5],,,,,,,
{8}4/5<3[2:3],,,,,,,4,
{8},4h[8:5],,,,,,,
{2}4h[4:1]/5<7[8:1],4h[4:1]/5<7[8:1],
{8}3/5,2,1,8,6-3[8:1]/7-2[8:1],,,,
{8}1x/4x,1,1/4,1,1/4,1,1/4,,
{8}2/4,2,2/4,2,2/4,2,2/4,,
{8}3/4,3,3/4,3,3/4,3,3/4,,
{8}4/5,4/5,4/5,2/3,2-7[8:1]/3-6[8:1],,,,
{8}5x/8x,8,5/8,8,5/8,8,5/8,,
{8}5x/7x,7,5/7,7,5/7,7,5/7,,
{8}5x/6x,6,5/6,6,5x/6x,6,5/6,,
{8}4/5,4/5,4/5,6/7,6/7,,5b/8b,,
{8}1-5[8:1]/7,,6,6-2[8:1],,4,4-8[8:1],,
{16}1-5[8:1]*-6[8:1],,,,1,,,,4,3,2,1,5,6,7,8,
{8}2,2-6[8:1],,8,8-3[8:1],,5,5,
{16}4-7[8:1]*-8[8:1],,,,4,,,,1,2,3,4,8,7,6,5,
{8}1-5[8:1],,6,6-2[8:1],,4,4-7[8:1],,
{16}8-3[8:1]*-4[8:1],,,,8,,,,5,6,7,8,4,3,2,1,
{8}7,7-3[8:1],,1,1-6[8:1],,4,4,
{16}5-1[8:1]*v8[8:1],,,,5,,,,2,8,2,8,3/7,,,,
{8}4h[4:3]/6,,5,5,3,,2h[4:3],,
{8}3,3,1,,8h[4:3],,1,1,
{8}7,,6h[2:1],,7,7,5,,
{8}4>1[8:1],4,4bp8[8:1],,4b,,5>2[8:1],5,
{4}5bp1[8:1],5b,4V28[4:1],8V64[4:1],
{4}4>8[4:1],8w4[8:1],,2/6,
{16}5,,5,4,5,,3,,3,4,3h[8:1],,C1,,,,
{16}7,,7,8,7,,1,,1,8,1h[8:1],,C1,,,,
{16}8,2,8,2,8,,3,1,3,1,3,,4,2,4,2,
{16}4,,3,5,3,5,3,,6,4,6h[8:1],,C1,,,,
{12}2-6[8:1]/7>2[8:1],,,2/7,,,5,4,3,8,7,6,
{12}1-5[8:1]/5<8[8:1],,,1/5,,,4,3,2,7,6,5,
{12}4<7[8:1]/8-4[8:1],,,4/8,,,3,2,1,7,6,5,
{12}4-8[8:1]/8-3[8:1],,,4/8,,,7,6,5,1/4,,,
{12}2<7[8:1]/7-3[8:1],,,2/7,,,4,5,6,1,2,3,
{12}4>1[8:1]/8-4[8:1],,,4/8,,,5,6,7,2,3,4,
{12}1-5[8:1]/5>2[8:1],,,1/5,,,6,7,8,1/3,4,5,
{12}6h[4:1]/8,,,7,7,7,5,5,5,3,3,3,
{1}C1f/1b>8[2:3],
{4}E8,E1,E2,,
{1}1>8[2:3],
{4}E3,E4,E5,,
{1}1>8[2:3],
{4}E6,E7,E8,,
{1}1s5[1:1],
{4}E7,C1,E3,,
{12}6,5,6,4,5,4,6,5,6,3,4,3,
{12}6,4,5,3,4,3,5,4,5,4/6,,,
{12}3,4,3,5,4,5,3,4,3,5,4,5,
{12}2,4,3,5,4,6,5,7,4,3/6,,,
{12}2,4,3,6,5,7,3,5,4,6,5,6,
{12}4,5,3,6,4,5,2,4,3,6,5,7,
{12}3,4,3,6,5,6,2,4,3,7,5,6,
{16}1,8,1,8,2,7,2,7,1,2,3,4,5,6,7,8,
(220){1}1bs5[2:1]*V36[2:1],
{16}5,4,,4,5,,3/6,,8,1,8,1,2b/7b,,,,
{8}1>4[8:1],1,8,7,6<1[8:1],6,5,4,
{8}3<6[8:1],3,2,1,8-3[8:1],7-4[8:1],8x,7x,
{8}2>5[8:1],2,1,8,7>2[8:1],7,6,5,
{8}4<7[8:1],4,3,2,1,8,1/7,2/6,
{8}3>8[8:1],3,4,5,6>3[8:1],6,7,8,
{8}1<6[8:1],1,2,3,4-1[8:1],5-8[8:1],4x,5x,
{16}2,3,4,5,8,7,6,5,1,2,3,4,7,6,1h[4:1]/5b,,
{8},8,1/7,2/6,3/5,1,2/8,,
{8}5-8[8:1],5,4,3,2-5[8:1],2,1,8,
{8}7-2[8:1],7,6,5,4<7[8:1],3>8[8:1],4x,3x,
{8}6-1[8:1],6,5,4,3-6[8:1],3,2,1,
{8}8-3[8:1],8,7,6,5,4,3/5,2/6,
{8}7-4[8:1],7,8,1,2-7[8:1],2,3,4,
{8}5-2[8:1],5,6,7,8<5[8:1],1>4[8:1],8x,1x,
{16}7,8,1,2,3,4,5,6,5,4,3,2,1,8,7,6,
{8}1/5,2,3/6,7,1/8,1/8,2b-6[4:15]/7b-3[4:15],2b/7b,
{1},
{1},
{1},
{1},
(240){8}4/5,,3,3,4,,4/5,,
{8}6,6,5,,4h[4:1]/6h[4:1],,,,
{8}4/5,,6,6,5,,4/5,,
{8}3,3,4,,3h[4:1]/5,,4,,
{8}4/5,,3,3,4,,4/5,,
{8}6,6,5,,4/6,,4/6,,
{8}4/5,,6,6,5,,4/5,,
{8}3,3,4,,3h[4:1]/5,5,5,,
{8}1/8,,7-5[8:1],7,5,,2-4[8:1],2,
{8}4,,7,7,4/6,,1/8,,
{8}3/5,,2-4[8:1],2,4,,7-5[8:1],7,
{8}5,,2,2,3/5,,1/8,,
{8}4/6,,3-1[8:1],3,5,,6-8[8:1],6,
{8}4,,2,2,3/5,,1/8,,
{8}4/6,6,3/5,3,4/7,7,2/5,2,
{16}8,7,6,5,1,2,3,4,5/8b,,,,2b/6b,,,,
{8}3-8[8:1],7-4[8:1],3,7,1-4[8:1],6-1[8:1],1,6,
{8}5-2[8:1],8-5[8:1],5,8,1>4[8:1],6,7,8,
{8}5-2[8:1],7-4[8:1],5,7,1-4[8:1],5-8[8:1],1,5,
{8}3,7,1/8,1/8,2-5[8:1]/7-4[8:1],,2b/7b,,
{8}6-1[8:1],2-5[8:1],6,2,8-5[8:1],3-8[8:1],8,3,
{8}4-7[8:1],1-4[8:1],4,1,8<5[8:1],3,2,1,
{8}4-7[8:1],2-5[8:1],4,2,8,4,5,4,
{8}3h[8:1]/6b,6b,2b/7h[8:1],2b,1/8,1/8,2b/7b,,
{16}8,7,6,5,8<5[8:1],1,2,3,8-4[8:1],,,,6/8,,,,
{8}7v4[8:1],3,7,1,6v1[8:1],2,6,4,
{16}8,7,6,5,1<6[8:1],2,3,4,1-5[8:1],,,,1/7,,,,
{8}4/8,4/8,3/7,3/7,2/6,2/6,3/7,,
{16}4,3,2,1,4>1[8:1],5,6,7,4-8[8:1],,,,2/4,,,,
{8}3v8[8:1],7,3,5,2v5[8:1],6,2,8,
{16}4,3,2,1,5>2[8:1],6,7,8,5-1[8:1],,,,3/5,,,,
{8}4/8,4/8,3/7,3/7,2b/6,2b-7[64:5]/6-3[4:7],2b/6,2b/6,
{1},
{1},
{16}3,4,3,,2,,3,,6,,5,,4,,3,,
{8}5,6,4,3,4,5,6,3,
{8}2-5[8:1]/8-5[8:1],2/8,2b/8b,,,,3-8[8:1]/5-8[8:1],3/5,
{8}3b/5b,,,1,2,8,7,3,
{8}4/6,7,3/5,2,4/5,3b/6b,,2/8,
{8}3/4,1/7,5/6,2b/7b,4b/5b,C1f/1b,,,
{1},
{1},
{1},
E
